Prosíme přihlašte se nebo zaregistrujte.

Přihlašte se svým uživatelským jménem a heslem.
Blog Ubuntu -- Správa "projektů" české komunity Ubuntu

Novinky: Děkujeme všem návštěvníkům fóra, kteří ochotně radí ostatním. Vaše práce je velmi potřebná a vážíme si jí.

Poslední příspěvky

Stran: 1 [2] 3 4 ... 10
11
Multimedia, foto, video, zvuk / Re:Kodek pro přehrávání MTS souborů
« Poslední příspěvek od NZM23 kdy Včera v 19:24:08 »
přidáním toho zdroje jsem to již zkoušel, ale to nezafungovalo........ . proto jsem se snažil pochopit další možnost, ale v těch balíkách jsem se právě neorientoval. Díky za návod dám vědět jak jsem dopad. . . . .
12
Multimedia, foto, video, zvuk / Re:Kodek pro přehrávání MTS souborů
« Poslední příspěvek od juwa2 kdy Včera v 17:43:06 »
Je sice hezké, že se pokoušíš kompilovat sigrok, ale bez zkušeností a potřebného (SW) vybavení to nezvládneš. Proto dej přednost repozitářům příp. hotovým balíkům .deb. Napřed zkus:
Kód: [Vybrat]
sudo apt-get update
sudo apt-get install sigrok
Pokud to nevyjde, použij balík .deb níže. Důrazně doporučuji instalovat pomocí Gdebi (doinstaluje závislosti). Takže pokud zatím nemáš, Gdebi nainstaluj:
Kód: [Vybrat]
sudo apt-get install gdebiPak se můžeš pustit do sigrok. Stáhni > pravoklik na soubor > otevřít pomocí > Gdebi.
https://launchpad.net/ubuntu/+archive/primary/+files/sigrok_0.2-3_all.deb
Případně další možnost:
Kód: [Vybrat]
sudo add-apt-repository ppa:daniel-elstner/sigrok
sudo apt-get update
sudo apt-get install sigrok
13
Multimedia, foto, video, zvuk / Re:Kodek pro přehrávání MTS souborů
« Poslední příspěvek od NZM23 kdy Včera v 17:23:58 »
Teď už se zas motám v tom jak nainstalovat Sigrok :o). . . https://sigrok.org/wiki/Linux#Building . Poňevadž jsem na to s angličtinou dost naštíru tak to zabere...... . Ale vypadá to, že zas asi budu muset hodit dotaz do fóra........ Má fórum nějakej účet kam poslat donutek ??? Zatím jsem si objednal knihy přes obchod, ale už dlouho ve mě hlodá ten pocit, že mám operační systém i podporu úplně zadarmo..... . Chtěl bych se poděkovat i finančně.
14
Multimedia, foto, video, zvuk / Re:Kodek pro přehrávání MTS souborů
« Poslední příspěvek od NZM23 kdy Včera v 17:11:53 »
jo ještě děkuji za tip na MediaInfo .

General
ID                                       : 0 (0x0)
Complete name                            : /home/hydra/Data/401_JVC_uklidit/VID/Kolo/00099.MTS
Format                                   : BDAV
Format/Info                              : Blu-ray Video
File size                                : 502 MiB
Duration                                 : 2mn 55s
Overall bit rate mode                    : Variable
Overall bit rate                         : 24.0 Mbps
Maximum Overall bit rate                 : 24.0 Mbps

Video
ID                                       : 4113 (0x1011)
Menu ID                                  : 1 (0x1)
Format                                   : AVC
Format/Info                              : Advanced Video Codec
Format profile                           : High@L4.0
Format settings, CABAC                   : Yes
Format settings, ReFrames                : 2 frames
Format settings, GOP                     : M=2, N=12
Codec ID                                 : 27
Duration                                 : 2mn 55s
Bit rate mode                            : Variable
Bit rate                                 : 22.6 Mbps
Width                                    : 1 920 pixels
Height                                   : 1 080 pixels
Display aspect ratio                     : 16:9
Frame rate                               : 25.000 fps
Color space                              : YUV
Chroma subsampling                       : 4:2:0
Bit depth                                : 8 bits
Scan type                                : Interlaced
Scan order                               : Top Field First
Bits/(Pixel*Frame)                       : 0.436
Stream size                              : 476 MiB (95%)

Audio
ID                                       : 4352 (0x1100)
Menu ID                                  : 1 (0x1)
Format                                   : AC-3
Format/Info                              : Audio Coding 3
Mode extension                           : CM (complete main)
Format settings, Endianness              : Big
Codec ID                                 : 129
Duration                                 : 2mn 55s
Bit rate mode                            : Constant
Bit rate                                 : 256 Kbps
Channel(s)                               : 2 channels
Channel positions                        : Front: L R
Sampling rate                            : 48.0 KHz
Bit depth                                : 16 bits
Compression mode                         : Lossy
Delay relative to video                  : -40ms
Stream size                              : 5.35 MiB (1%)

Text
ID                                       : 4608 (0x1200)
Menu ID                                  : 1 (0x1)
Format                                   : PGS
Codec ID                                 : 144
Duration                                 : 2mn 54s
Delay relative to video                  : -40ms

Dost mi to pomůže s nastavením  KDEnlive.
15
Multimedia, foto, video, zvuk / Re:Kodek pro přehrávání MTS souborů
« Poslední příspěvek od NZM23 kdy Včera v 17:09:04 »
VLCplayer  - nástroje - nastavení - video 
ale bez rady bych na to těžko přišel.

 
16
Multimedia, foto, video, zvuk / Re:Kodek pro přehrávání MTS souborů
« Poslední příspěvek od juwa2 kdy Včera v 16:27:35 »
To se týká všech SW přehrávačů. V případě přehrávání prokládaného videa na PC je třeba zapnout deinterlacing - jinak je obraz "řádkovaný" zejména za pohybu. Komerční stolní playery (a TV) to mají už ošetřeno.

17
Obecná podpora / Re:Nelze odinstalovat předchozí jádra
« Poslední příspěvek od kukide kdy Včera v 16:23:30 »
Dííík moc, už jsem si poradil...

Nakonec pomohlo
apt-get autoremove

pak už byl nějakej prostor tak jsme zaktualizoval, tím pádem naštěstí to vyřešilo nějakej konflikt kterej tam byl a pak jsem jádro po jádru odstranil v synapticu... :)

Takže poučení pro příště je že nenechat si na bootu 0% místa :)

Ale stejně mě zajímá... Ubuntu už používám víc jak deset let ale poslední dva roky se mi tohle už staro podruhý... proč ten boot je takhle v těch novej verzích malejch... na mim starým kompu jsem to nikdy dělat nemusel
18
Multimedia, foto, video, zvuk / Re:Kodek pro přehrávání MTS souborů
« Poslední příspěvek od Ventero kdy Včera v 15:35:28 »
A o jakem prehravaci byla rec?
19
Obecná podpora / Re:Nelze odinstalovat předchozí jádra
« Poslední příspěvek od juwa2 kdy Včera v 14:50:46 »
Stará jádra se odstraňují průběžně, nečeká se až dojde místo, pak to dopadá takto...
----------------
Zobrazení aktuálního kernelu:
Kód: [Vybrat]
uname -aZobrazení seznamu aktuálně nainstalovaných kernelů:
Kód: [Vybrat]
dpkg --list 'linux-image*'Odstranění konkrétních kernelů ze seznamu výše (uvolnění místa)-příklad:
Kód: [Vybrat]
sudo rm /boot/*-4.4.0-87*
sudo rm /boot/*-4.4.0-86*
atd....
(konkrétní kernely si tam dopiš ze seznamu výše, postupuj pozorně, ať si neodstraníš aktuální kernel!!)
A na závěr ještě:
Kód: [Vybrat]
sudo apt-get install -f
sudo update-grub
Restartuj PC
Hotovo.
-----------------------------------------------------------
K usnadnění čištění starých věcí můžeš používat Ubuntu-Tweak nebo Bleachbit.
20
Obecná podpora / Nelze odinstalovat předchozí jádra
« Poslední příspěvek od kukide kdy Včera v 14:10:30 »
Ahoj, mám problém že mi boot sektor hlásí že je úplně plnej tak jako obvykle jsem chtěl odinstalovat starší jádra přes synaptic... ale nejdeto pokaždé to skončí na téhle chybě...
E: linux-image-extra-4.4.0-87-generic: podproces instalovaný post-removal skript vrátil chybový status 1


co mám dělat??

říkal jsme si že zaktualizuju a pak to zkusím zmovu ale vzhledem k tomu nedostatku místa to nejde
Stran: 1 [2] 3 4 ... 10