Prosíme přihlašte se nebo zaregistrujte.

Přihlašte se svým uživatelským jménem a heslem.
World of Warcraft

Novinky: Školení nejen k OS Ubuntu pro širokou veřejnost, více informací zde.

Zobrazit příspěvky

Tato sekce Vám umožňuje zobrazit všechny příspěvky tohoto uživatele. Prosím uvědomte si, že můžete vidět příspěvky pouze z oblastí Vám přístupných.


Příspěvky - JirkaZ

Stran: [1] 2 3 ... 8
1
Volná diskuze kolem Linuxu a OSS / Re:Dell pro Linuxy?
« kdy: 20 Březen 2019, 16:35:56 »
Dobrý den, četla jsem na jednom českém blogu kladnou recenzi na Dell XPS 13 (tady, kdyby někoho zajímalo https://blog.eischmann.cz/2018/04/06/chcete-notebook-s-linuxem-kupte-si-dell/ ). Přemýšlím o koupi repasovaného notebooku Dell (konkrétně https://www.terastore.cz/dell-latitude-e5570_d179606.html ), četla jsem na zahraničních fórech, že řada Latitude je pro Linuxy taky obstojná. Znáte někoho nebo doporučili byste Lattitude k Linuxům? Předem děkuji za odpověd.

https://duckduckgo.com/?q=Dell+Latitude+E5570+ubuntu&t=h_&ia=web => https://certification.ubuntu.com/certification/hardware/201508-18813/

2
Internet a sítě / Re:Firefox
« kdy: 18 Březen 2019, 18:45:23 »

Ne, neměl. Opravdu nedělám screen při každé akci na PC, takže důkaz nemám.  Ale opravdu tam ten doplněk nebyl. Jen si zkuste logicky odvodit, zda by jste něco s takovým názvem u sebe v počítači nechával. Já taky ne.
(Pro jistotu jsem smazal i ten screen :-D )

Obyčejně jsem spustil Firefox, rozkliknul menu a DOPLŇKY a byla tam jedna položka, a sice nějaký translator. Ten jsem odstřelil, protože stejně fungoval podle sebe a ne podle mně. Pak jsem z čisté karty DOPLŇKY nainstaloval translatory zmíněné pár příspěvků zpět a odsouhlasil podmínky. Pak jsem na výpisu karty s DOPLŇKY našel místo dvou doplňků tři. Třetí jsem rozklikl, sreennul a postl sem.

https://www.reddit.com/r/firefox/comments/9ii8sj/firefox_keeps_silently_installing_hidden/ a ještě předtím https://support.mozilla.org/en-US/kb/firefox-monitor - údajně se tedy jedná o součást nové verze FF zabraňující šmírování...

Že svět neustále jde směrem k šmírovací digitální totalitě, to je zřejmé. Ale pořád ještě má větší logiku věřit Mozille, než nadnárodním globalizátorům, pro které je zisk jedinou a/nebo nejvyšší metou (nic proti zisku, naopak, ale nesmí být chápán takto).

Zisk přitom nemusí být prvoplánově finanční, ale třeba datový. Viz třeba https://duckduckgo.com/?q=dohledov%C3%BD+kapitalismus&t=h_&ia=web apod.

3
Internet a sítě / Re:Firefox
« kdy: 17 Březen 2019, 22:27:35 »
Díky tomuto dotazu jsem si konečně zjistil, jak v Chrome ten opruzný automatický překlad vypnout.

Neskutečně mě to vytáčí, i když Chrome otevírám jednou za uherský rok...

4
Pomoc s hardwarem / Re:nová CPU
« kdy: 14 Březen 2019, 21:02:30 »
nahodile, ne vždy. nejčastěji dkyž mám otevřená nějaké PDF

Jo ahááááá - no pozor, některá iňácká pdf (zejména od marketingových managorů apod.) dokáží velmi vytížit i moderní 64bit CPU, obsadit spoustu paměti atd. Takže jestli nakonec nevane vítr odtud...

Chtělo by to sledovat právě i využití paměti, což je samozřejmě vidět i v tom výpisu z topu (sloupec %MEM, defaultně hned vpravo vedle sloupce %CPU).

No a u toho skajpu bych zvážil, zda je nutné používat videohovor. Přece jen pan Bell to telefonování nemyslel tak, že bychom se vzájemně museli dívat, jak se protějšek zrovna xichtí... Když se kamera zakáže (odpojí), CPU z toho bude mít jenom potěšení.

5
Pomoc s hardwarem / Re:nová CPU
« kdy: 14 Březen 2019, 20:55:37 »
Co bych mohla použít na záznam těch logů?

Třeba

Kód: [Vybrat]
top -b > ~/top_log.txt
Ale pozor, s defaultním nastavením (tak, jak je tento první příklad) každé 3 vteřiny ten log (top_log.txt) alespoň u mě bobtná cca o 20 kB (záleží na množství běžících procesů), takže za hodinu už bude mít okolo 24 MB! Jde to omezit za cenu méně častého ukládání parametrem -d. Např.

Kód: [Vybrat]
top -b -d 10 > ~/top_log.txt
bude ukládat každých 10 vteřin.

Spuštění pochopitelně v konzoli, tamtéž ukončení pomocí Ctrl+C. Bližší info o možnostech viz

Kód: [Vybrat]
man top
Jde to i jinak (pomocí skriptů), ale tohle myslím zcela stačí.

6
Pomoc s hardwarem / Re:nová CPU
« kdy: 14 Březen 2019, 09:09:25 »
Já si hlavně myslím, že pořád ještě nebyla zjištěna příčina (tedy co ten procesor začne vytěžovat).

Způsoby jsem popsal, možná ty programy umí i zapisovat logy, aby nebylo nutné u toho sedět.

Nemůžu dělat závěry, když neznám příčiny...

7
Multimedia, foto, video, zvuk / Re:ffmpeg version 3.4.1-1~xenial1
« kdy: 12 Březen 2019, 16:54:58 »
Po updatu ffmpeg na verzi:
Citace
ffmpeg version 3.4.1-1~xenial1
už po:
Kód: [Vybrat]
ffmpeg -i input.avi -c copy output.aviv Avidemux lze video editovat OK.
Jen škoda, že nelze přímo v Avidemux, no ale potřebuji střih příležitostně, takže díky pro JirkaZ .

No tak sláva...

Já si myslím, že "prohnání" tím ffmpegem je to nejmenší a vyřeší to problémy, které (pravděpodobně) způsobuje divné enkódování už z kamery...

8
Mně funguje Synaptic (nebo CLI), nikdy jsem nereagoval na různé tyhle omalovánky (a že už jich bylo)...

9
Kód: [Vybrat]
sudo apt-get update && sudo apt-get dist-upgrade -y
Stane se co?

10
Nejspíše máme jiné verze 'ffmpeg encode'. můj:
Citace
ffmpeg version 2.8.15-0ubuntu0.16.04.1

Ano, já mám novější ffmpeg z PPA, konkrétně https://launchpad.net/~mc3man/+archive/ubuntu/trusty-media . Pro Xerus je to https://launchpad.net/~mc3man/+archive/ubuntu/xerus-media .

11
Pomoc s hardwarem / Re:nová CPU
« kdy: 12 Březen 2019, 10:36:49 »
tak mám naisntalovaný Htop - ale nevím co tam mám zkoumat :-D
které kolonky mají vypovídající hodnotu?

Sloupec zatížení CPU (CPU%).... Celý program lze taky omezit na zobrazení třeba jen zatížení CPU (Setup resp. F2) atd.

12
Multimedia, foto, video, zvuk / Re:delší video
« kdy: 12 Březen 2019, 10:29:14 »
Delší záznam - 1 minuta - 288MB:
https://uloz.to/!UtR5JYWwLmZy/autokamera-1min-288mb-avi
Zvuk mám u kamery v nastavení OFF - vypnutý.
JirkaZ - varianta s ffmpeg mi nefunguje:
Citace
ffmpeg -i input.avi -c copy output.avi

Hm, mně funguje. Viz https://uloz.to/!fL4zpdH8B0Ex/ak-ffmpeg-rep-avi . Tento soubor lze otevřít a i normálně přehrát (a stříhat) v Avidemuxu verze 2.5.4 i 2.7.0, stejně jako v OpenShotu 1.4.3. Pomíjím to, že záznam je roztřesený a trochu "roztrhaný", což má nejspíš na svědomí kamera a kameraman ;-)

Výpisy z Mediainfo:

původní (mnou pouze přejmenovaný) soubor:
Kód: [Vybrat]
General
Complete name                            : /home/user/Plocha/ak.avi
Format                                   : AVI
Format/Info                              : Audio Video Interleave
File size                                : 275 MiB
Duration                                 : 1 min 41 s
Overall bit rate                         : 22.6 Mb/s

Video
ID                                       : 0
Format                                   : JPEG
Codec ID                                 : MJPG
Duration                                 : 1 min 41 s
Bit rate                                 : 21.5 Mb/s
Width                                    : 1 280 pixels
Height                                   : 960 pixels
Display aspect ratio                     : 4:3
Frame rate                               : 30.000 FPS
Color space                              : YUV
Chroma subsampling                       : 4:2:0
Bit depth                                : 8 bits
Compression mode                         : Lossy
Bits/(Pixel*Frame)                       : 0.583
Stream size                              : 261 MiB (95%)

Audio
ID                                       : 1
Format                                   : PCM
Format settings                          : Little / Signed
Codec ID                                 : 1
Duration                                 : 1 min 41 s
Bit rate mode                            : Constant
Bit rate                                 : 256 kb/s
Channel(s)                               : 1 channel
Sampling rate                            : 16.0 kHz
Bit depth                                : 16 bits
Stream size                              : 3.11 MiB (1%)
Alignment                                : Aligned on interleaves

soubor po "protažení" ffmpegem (mimochodem - ffmpegu to trvá asi vteřinu ;-) ):
Kód: [Vybrat]
General
Complete name                            : /home/user/Plocha/ak_ffmpeg_rep.avi
Format                                   : AVI
Format/Info                              : Audio Video Interleave
File size                                : 274 MiB
Duration                                 : 1 min 15 s
Overall bit rate                         : 30.5 Mb/s
Writing application                      : Lavf57.83.100

Video
ID                                       : 0
Format                                   : JPEG
Codec ID                                 : MJPG
Duration                                 : 1 min 15 s
Bit rate                                 : 30.5 Mb/s
Width                                    : 1 280 pixels
Height                                   : 960 pixels
Display aspect ratio                     : 4:3
Frame rate                               : 30.000 FPS
Color space                              : YUV
Chroma subsampling                       : 4:2:0
Bit depth                                : 8 bits
Scan type                                : Progressive
Compression mode                         : Lossy
Bits/(Pixel*Frame)                       : 0.828
Stream size                              : 274 MiB (100%)

Audio
ID                                       : 1
Format                                   : PCM
Format settings                          : Little / Signed
Codec ID                                 : 1
Duration                                 : 1 min 15 s
Bit rate mode                            : Constant
Bit rate                                 : 256 kb/s
Channel(s)                               : 1 channel
Sampling rate                            : 16.0 kHz
Bit depth                                : 16 bits
Stream size                              : 2.30 MiB (1%)
Alignment                                : Aligned on interleaves

verze ffmpeg:
Kód: [Vybrat]
~/Plocha$ ffmpeg
  ffmpeg version 3.4 Copyright (c) 2000-2017 the FFmpeg developers
  built with gcc 4.8 (Ubuntu 4.8.4-2ubuntu1~14.04.4)
  configuration: --extra-libs=-ldl --prefix=/opt/ffmpeg --mandir=/usr/share/man --enable-avresample --disable-debug --enable-nonfree --enable-gpl --enable-version3 --enable-libopencore-amrnb --enable-libopencore-amrwb --disable-decoder=amrnb --disable-decoder=amrwb --enable-libpulse --enable-libfreetype --enable-gnutls --disable-ffserver --enable-libx264 --enable-libx265 --enable-libfdk-aac --enable-libvorbis --enable-libtheora --enable-libmp3lame --enable-libopus --enable-libvpx --enable-libspeex --enable-libass --enable-avisynth --enable-libsoxr --enable-libxvid --enable-libvidstab --enable-libwavpack --enable-nvenc --enable-libzimg
  libavutil      55. 78.100 / 55. 78.100
  libavcodec     57.107.100 / 57.107.100                                                                                                                                                 
  libavformat    57. 83.100 / 57. 83.100                                                                                                                                                 
  libavdevice    57. 10.100 / 57. 10.100                                                                                                                                                 
  libavfilter     6.107.100 /  6.107.100                                                                                                                                                 
  libavresample   3.  7.  0 /  3.  7.  0                                                                                                                                                 
  libswscale      4.  8.100 /  4.  8.100                                                                                                                                                 
  libswresample   2.  9.100 /  2.  9.100                                                                                                                                                 
  libpostproc    54.  7.100 / 54.  7.100                                                                                                                                                 
Hyper fast Audio and Video encoder                                                                                                                                                       
usage: ffmpeg [options] [[infile options] -i infile]... {[outfile options] outfile}...                                                                                                   
                                                                                                                                                                                         
Use -h to get full help or, even better, run 'man ffmpeg'

Z výpisu Mediainfo je vidět, že pochopitelně i po vypnutí zvuku na kameře se formát souboru nezměnil...

Bylo by to dost divné, enkódování je obvykle nastavené napevno. Ono vypnutí zvuku je nejspíš realizováno odpojením mikrofonu (nebo přerušením analogového signálu z něj jinde) a projeví se prostě tak, že audiosložka ve videu je sice přítomná, ale neobsahuje žádná relevantní data (= ten zvuk).

14
Multimedia, foto, video, zvuk / Re:video střih IBM Motion JPEG
« kdy: 11 Březen 2019, 22:28:08 »
vyzkoušený workaround:

prohnat ten *.avi ffmpegem příkazem

Kód: [Vybrat]
ffmpeg -i input.avi -c copy output.avi
Po této operaci je výstup z Mediainfo tento:

Kód: [Vybrat]
General
Complete name                            : /home/user/Plocha/autokamera_ffmpeg_rep.avi
Format                                   : AVI
Format/Info                              : Audio Video Interleave
File size                                : 4.14 MiB
Duration                                 : 3 s 533 ms
Overall bit rate                         : 9 839 kb/s
Writing application                      : Lavf57.83.100

Video
ID                                       : 0
Format                                   : JPEG
Codec ID                                 : MJPG
Duration                                 : 3 s 533 ms
Bit rate                                 : 9 810 kb/s
Width                                    : 1 280 pixels
Height                                   : 960 pixels
Display aspect ratio                     : 4:3
Frame rate                               : 30.000 FPS
Color space                              : YUV
Chroma subsampling                       : 4:2:0
Bit depth                                : 8 bits
Scan type                                : Progressive
Compression mode                         : Lossy
Bits/(Pixel*Frame)                       : 0.266
Stream size                              : 4.13 MiB (100%)

Audio
ID                                       : 1
Format                                   : PCM
Format settings                          : Little / Signed
Codec ID                                 : 1
Duration                                 : 3 s 533 ms
Bit rate mode                            : Constant
Bit rate                                 : 256 kb/s
Channel(s)                               : 1 channel
Sampling rate                            : 16.0 kHz
Bit depth                                : 16 bits
Stream size                              : 110 KiB (3%)
Alignment                                : Aligned on interleaves

Výsledek pak lze stříhat i starším Avidemuxem (2.5.4), novější ani OpenShot jsem nezkoušel.

15
Multimedia, foto, video, zvuk / Re:video střih IBM Motion JPEG
« kdy: 11 Březen 2019, 22:16:50 »
Vytvořil jsem krátký záběr (je to ve tmě v garáži):
https://uloz.to/!qemMsfAsdNXr/autokamera3-avi

Kód: [Vybrat]
General
Complete name                            : /home/user/Plocha/autokamera3.avi
Format                                   : AVI
Format/Info                              : Audio Video Interleave
File size                                : 5.13 MiB
Duration                                 : 5 s 300 ms
Overall bit rate                         : 8 124 kb/s

Video
ID                                       : 0
Format                                   : JPEG
Codec ID                                 : MJPG
Duration                                 : 5 s 300 ms
Bit rate                                 : 7 537 kb/s
Width                                    : 1 280 pixels
Height                                   : 960 pixels
Display aspect ratio                     : 4:3
Frame rate                               : 30.000 FPS
Color space                              : YUV
Chroma subsampling                       : 4:2:0
Bit depth                                : 8 bits
Compression mode                         : Lossy
Bits/(Pixel*Frame)                       : 0.204
Stream size                              : 4.76 MiB (93%)

Audio
ID                                       : 1
Format                                   : PCM
Format settings                          : Little / Signed
Codec ID                                 : 1
Duration                                 : 5 s 300 ms
Bit rate mode                            : Constant
Bit rate                                 : 256 kb/s
Channel(s)                               : 1 channel
Sampling rate                            : 16.0 kHz
Bit depth                                : 16 bits
Stream size                              : 166 KiB (3%)
Alignment                                : Aligned on interleaves

U mě to z editorů nezvládá ani Avidemux (2.7.0), ani openShot (1.4.3). Nezvládají to ani přehrát...

16
Multimedia, foto, video, zvuk / Re:video střih IBM Motion JPEG
« kdy: 11 Březen 2019, 21:58:44 »
Mediainfo (CLI nebo GUI) by měl dát podrobnější informace o tom videu...

17
Pomoc s hardwarem / Re:nová CPU
« kdy: 11 Březen 2019, 13:03:53 »
Zkusil bych v tom "záhadném" momentu sledovat zatížení systému - tam bude vidět, co to způsobuje.

V Kubuntu na to je  např. KSysGuard, v Xubuntu by kromě doinstalace tohoto programu měla fungovat i některá jiná možnost uvedená třeba na http://www.linuxandubuntu.com/home/10-best-linux-task-managers

18
Obecná podpora / Re:Unity vs. Gnome
« kdy: 08 Březen 2019, 22:33:40 »
Mel jsem za to, ze Ubuntu One je leta zrusen ... ?

Je zrušený coby úložiště souborů, zůstal jako prostředník (single sign-on) pro přihlášení k různým účtům u Ubuntu.

19
Obecná podpora / Re:Dvojí menu v Libre Office 6.1.5
« kdy: 08 Březen 2019, 09:32:59 »
EDIT: tak nový ovladač scanneru 1.7 chodí s jádrem 4.15. super.
Bohužel na chování libreoffice změna jádra vliv nemá.

To bych ani nečekal, když to v LXDE funguje a v Unity ne. Problém je prostě v tom bazmeku...

20
Thinkpad T40 má CPU Pentium M (tzv. non PAE) a můžou tam být problémy se standardním jádrem, zejména v novějších verzích Ubuntu.

Viz třeba https://askubuntu.com/questions/415065/ubuntu-server-on-a-32-bit-non-pae-machine nebo https://help.ubuntu.com/community/PAE.

Osobně mám T42 a jede tam Kubuntu 14.04 úplně bez problémů, ale po pravdě už si nevzpomínám, jak jsem to instaloval. Kubuntu 18.04 jsem ještě nezkoušel.

O Visionbooku 2500LXM nevím nic bližšího, ale našel jsem, že může mít 32bit CPU Celeron M 410 nebo Core Duo T2050, což by neměl být problém (http://cdimage.ubuntu.com/lubuntu/releases/18.04/release/lubuntu-18.04.2-desktop-i386.iso)...

21
Obecná podpora / Re:Dvojí menu v Libre Office 6.1.5
« kdy: 07 Březen 2019, 21:57:50 »
BTW scanner. Je to OKI MC352, výrobce vydává linux driver. Bohužel poslední verze se kterou funguje je Ubuntu 16.04 s jádrem 4.4.0. Na jádře 4.15.0 už o Xsane nenajde, i když ls usb ano.

Je to https://www.oki.com/eu/printing/download/okimfpsdrv_1.7-0_amd64_231225.deb (z https://www.oki.com/eu/printing/support/drivers-and-utilities/?id=46252701FZ01&tab=drivers-and-utilities&productCategory=colour-multifunction&sku=44952004&os=ab33&lang=ac15)? Pokud ano, tak jsou v novějších distribucích splněny podmínky
libc6 (>=2.3.4)
libgcc1 (>=1:4.1.1)
libstdc++6 (>=4.1.1)
libusb-1.0-0 (>=2:1.0.3)
python ?

Na příkladu scanneru Epson (http://forum.ubuntu.cz/index.php?topic=84136.msg563825#msg563825) se dá ukázat, že stačí, aby výrobce (poskytovatel) driveru nerespektoval novou adresářovou hierarchii v nové verzi distribuce a je vymalováno...

Na druhou stranu se takovýto problém dá jednoduše řešit - pokud tedy člověk zjistí, v čem spočívá ;-)

22
Obecná podpora / Re:Dvojí menu v Libre Office 6.1.5
« kdy: 07 Březen 2019, 14:23:14 »
No jo no.  Já už jsem zkoušel i 18.04, jenže když mě pak nechodí ten scanner. :(
A ten je pro mě důležitější než drobný vopruz s meníčkama.
Projedu pak tu bugzillu.
Díky moc.

No a co ta čistá verze LO vs. z repozitáře?

Mimochodem: nezdá se mi, že by funkce scanneru závisela tak úplně na prostředí. Sane, resp. Xsane by mělo fungovat kdekoliv. Jádro, to je jiná a pokud výrobce scanneru nemá svůj driver, tak...

Co to je přesně za scanner?

23
Obecná podpora / Re:Dvojí menu v Libre Office 6.1.5
« kdy: 07 Březen 2019, 14:05:01 »
Tak v LXDE se menu zobrazuje správně. drobná změna se udála i v unity. Tam se menu zobrazí jednou, ať otevřu jakýkoliv soubor. Když otevřu kterýkoliv další. Menu se zduplikuje, ale u prvního souboru se ukazuje pořád jenom jedno. :D

No takže to jasně s tím bazmekem (Unity) souvisí...

Jednak bych to takto popsal do té BugZilly (může to být i jinde, než v oddílu UI, na který jsem dal odkaz - obecně někde v https://bugs.documentfoundation.org/describecomponents.cgi?product=LibreOffice), druhak je ovšem otázka, zda jim to vůbec přísluší...

Může jít třeba buď jen o chybu v Ubuntu odnoži LO. Otestoval bych to dále třeba stažením a instalací čisté verze LO (tedy ne z repozitáře, nýbrž z https://cs.libreoffice.org/download/download/ či https://downloadarchive.documentfoundation.org/libreoffice/old/) - obě verze mohou v systému být nezávisle, protože ta čistá se instaluje do /opt .

24
Obecná podpora / Re:Dvojí menu v Libre Office 6.1.5
« kdy: 07 Březen 2019, 13:07:56 »
Jenže s jiným prostředím mi vznikne problém s scannerem OKI.
Ten pro změnu chodí pouze v Unity 16.04 na jádře 4.4.0 :D

To jiné prostředí není náhrada, nýbrž může existovat úplně souběžně a nezávisle vedle stávajícího a při restartu X lze zvolit, které se má spustit...

Takový nesmysl jako změnu natvrdo jen kvůli jednomu problému s jednou aplikací bych fakt neradil. Stojí to jen něco místa na disku a kdykoliv se to dá odinstalovat...

No a tyto dva konkrétní tipy jsem dal proto, že jsou relativně úsporné (pro ten pokus), jinak samozřejmě preferuju KDE ;-)

25
Obecná podpora / Re:Dvojí menu v Libre Office 6.1.5
« kdy: 07 Březen 2019, 12:56:04 »
Zkusil jsem i výměnu balíku lb-gtk2 za gtk3, ale tam se pak menu ukazovalo 2x i u nového souboru. :(

Z čehož bych ale usuzoval, že nějak to souviset bude... Zkusil bych BugZillu LibreOffice (https://bugs.documentfoundation.org/buglist.cgi?component=UI&product=LibreOffice&resolution=--- ), pokud to tam už není.

Za zkoušku by asi stála i doinstalace jiného prostředí (třeba LXDE nebo XFCE, viz balík lubuntu-desktop nebo xubuntu-desktop) a test v nich, zda problém přetrvává. A výsledek bych dopsal do té BugZilly...

Stran: [1] 2 3 ... 8