Prosíme přihlašte se nebo zaregistrujte.

Přihlašte se svým uživatelským jménem a heslem.
Vaše pomoc je stále potřeba!

Autor Téma: Video, jen lišta - VYŘEŠENO!  (Přečteno 3429 krát)

Kvido

  • Stálý člen
  • **
  • Příspěvků: 532
    • nekecamweb.cz
Video, jen lišta - VYŘEŠENO!
« kdy: 13 Února 2024, 14:40:41 »
Po stažení videa ze Sítě (Telegram) se mně video standardně uloží ve složce "Videa" a v prohlížečí Firefox/Chromium se zobrazuje.
Pokud toto video uložím přes FTP hostingu na svůj web, video se nezobrazí, pouze lišta, aktivní je ZVUK. Je vidět rolující se přehrávání  na liště.
V čem, bude asi problém? ALE VIDEO, bílé místo.
Napadá mě, že web, z něhož jsem stahoval, zablokoval zobrazování videa. Jak to zjistit? Psal jsem na Telegram....
Díky za každou radu.
« Poslední změna: 25 Února 2024, 13:14:17 od Kvido »
OS: Ubuntu 23.04
PC: Intel® Celeron(R) J4005 CPU @ 2.00GHz × 2, grafika: Mesa Intel® UHD Graphics 600 (GLK 2), disk SSD, 450 GB, paměť DDR 4 - 3,7 GiB.

ramael

  • Stálý člen
  • **
  • Příspěvků: 647
Re:Video, jen lišta
« Odpověď #1 kdy: 13 Února 2024, 21:02:21 »
V tomto případě bych chybu v telegramu neviděl. Pokud ti stažené video hraje v počítači, tak je chyba nejspíš na Tvém webu.
Lenovo: ThinkPad X380 Yoga
Joutůůůůb

Kvido

  • Stálý člen
  • **
  • Příspěvků: 532
    • nekecamweb.cz
Re:Video, jen lišta
« Odpověď #2 kdy: 14 Února 2024, 08:51:42 »
@ramael
Problém je v tom, že to video se zobrazuje na webu https://www.nekecamweb.cz/blog/3387/12022024+-ukrajina-izrael-
jako AUDIO. Je zobrazena pouze lišta, logicky.
Když změním type (kromě standardního mp4) na mp3, či jiné - nic se nezmění.
Myslím, že je to hostingem, ale oni to opdmítají...
***
Teď jsem uložil se standardními parametry video z Youtube a zobrazuje perfektně!!!! :D  :D  :D.....
Předběžné hodnocení, Telegram je nějak divný!
Takže, pro tuto chvíli DÍKY, ramael!!

« Poslední změna: 14 Února 2024, 13:53:59 od Kvido »
OS: Ubuntu 23.04
PC: Intel® Celeron(R) J4005 CPU @ 2.00GHz × 2, grafika: Mesa Intel® UHD Graphics 600 (GLK 2), disk SSD, 450 GB, paměť DDR 4 - 3,7 GiB.

ramael

  • Stálý člen
  • **
  • Příspěvků: 647
Re:Video, jen lišta
« Odpověď #3 kdy: 14 Února 2024, 19:52:20 »
Z telegramu stahuji videa pomalu denně, ale ještě nikdy se mi nestalo aby nehrálo.
Na té stránce je šest videí a všechny jdou spustit.
Nevím kdo ten web kóduje, ale je to dost prasácky udělaný:
řádek 113. nespárovaná ukončovací značka anchor <a/>
116. přebytečný tag nového řádku <br/ > ve video sekci.
117. source v pořádku ale na 130 už má navíc ukončovací lomítko uvnitř tagu...

Asi z toho prohlížeči hrabe  ;D
Lenovo: ThinkPad X380 Yoga
Joutůůůůb

Kvido

  • Stálý člen
  • **
  • Příspěvků: 532
    • nekecamweb.cz
Re:Video, jen lišta
« Odpověď #4 kdy: 15 Února 2024, 13:53:30 »
@ramael
Koduji já. Moc díky za připomínky k těm tagům. Patří mě to! Už jsem, doufám, opravil.
ALE to nebude příčina.
Pač videa stažená z Telegramu (t.me) od jiných statusů běžně na nekecamweb.cz se zobrazují. Také jsem jich tam několik přidal, mají svá jména.
Problém stále je u t.me/to_je_nas_svet
Stažení na PC funguje. Přenos přes SFTP funguje, mp4 je řádně uloženo, na webu se bohužel nezobrazí....
OS: Ubuntu 23.04
PC: Intel® Celeron(R) J4005 CPU @ 2.00GHz × 2, grafika: Mesa Intel® UHD Graphics 600 (GLK 2), disk SSD, 450 GB, paměť DDR 4 - 3,7 GiB.

ramael

  • Stálý člen
  • **
  • Příspěvků: 647
Re:Video, jen lišta
« Odpověď #5 kdy: 15 Února 2024, 21:50:30 »
Jsem si teď cvičně stáhnul dvě videa z kanálu náš svět na telegramu. Přehrají se mi jak v MPV tak v prohlížeči.
Až nějaké nepůjde, dej sem na něj odkaz a já na to juknu.
Zkus se naučit jednotný styl kódování. Používáš HTML5, tak na co tolik psaního lomítek?
Jsou dva druhy tagů:
  • Nepárový - tag je vždy bez lomítka! <br> <hr> atd..
  • Párový - inicializační tag je vždy bez lomítka! Až ten ukončovací má lomítko
Lenovo: ThinkPad X380 Yoga
Joutůůůůb

Kvido

  • Stálý člen
  • **
  • Příspěvků: 532
    • nekecamweb.cz
Re:Video, jen lišta
« Odpověď #6 kdy: 16 Února 2024, 14:18:54 »
Video z https://t.me/to_je_nas_svet/22707
staženo: video_2024-02-15_12-34-37(1).mp4
video na webu:
https://nekecamweb.cz/infusions/blog/útok_terorist_ na obchod_Belgorod_16.2.2024.mp4

V Prohlížeči Firefox a Chromium se také toto video zobrazuje, na webu ne.

Děkuji za konzultaci!
« Poslední změna: 16 Února 2024, 14:26:05 od Kvido »
OS: Ubuntu 23.04
PC: Intel® Celeron(R) J4005 CPU @ 2.00GHz × 2, grafika: Mesa Intel® UHD Graphics 600 (GLK 2), disk SSD, 450 GB, paměť DDR 4 - 3,7 GiB.

ramael

  • Stálý člen
  • **
  • Příspěvků: 647
Re:Video, jen lišta
« Odpověď #7 kdy: 17 Února 2024, 20:08:37 »
Tak jsem na to koukl. Problém je s bitrate videa. Web prohlížeče nechtějí v základu přehrávat moc vysoké. Dá se to ošetřit pomocí JavaScriptu, ale to se mě nechce studovat. Najdi si něco o WebRTC.
Nebo si překonvertuj video na počítači:
Kód: [Vybrat]
ffmpeg -i vstupnivideo.mp4 -c:v libx264 -b:v 650k vystupnivideo.mp4
kde -b:v je jak vysoké videobitrate chceš mít. Těch 650k je dobře funkčních. Video o kterém jsi psal má 1803kb/s
Lenovo: ThinkPad X380 Yoga
Joutůůůůb

Kvido

  • Stálý člen
  • **
  • Příspěvků: 532
    • nekecamweb.cz
Re:Video, jen lišta
« Odpověď #8 kdy: 19 Února 2024, 16:13:41 »
Jo, zkoušel jsem.
Neúspěšně!
status: t.me/to_je_nas_svet  podle mě nedovoluje manipulaci videa, tedy přenos na další subjekt.
Vyžaduje umístění videa do systému /run/user/1000....  Dost podivné, ne?
Končím s touto aplikací.
Díky za pomoc.
« Poslední změna: 19 Února 2024, 16:27:23 od Kvido »
OS: Ubuntu 23.04
PC: Intel® Celeron(R) J4005 CPU @ 2.00GHz × 2, grafika: Mesa Intel® UHD Graphics 600 (GLK 2), disk SSD, 450 GB, paměť DDR 4 - 3,7 GiB.

ramael

  • Stálý člen
  • **
  • Příspěvků: 647
Re:Video, jen lišta
« Odpověď #9 kdy: 20 Února 2024, 08:22:15 »
Ok, Tvoje věc. Jen nějak nechápu co to tam píšeš (status, umístění atd). Mě to funguje. Fake video jsem stáhnul, zkonvertoval a hraje v prohlížeči.
Lenovo: ThinkPad X380 Yoga
Joutůůůůb

Kvido

  • Stálý člen
  • **
  • Příspěvků: 532
    • nekecamweb.cz
Re:Video, jen lišta
« Odpověď #10 kdy: 20 Února 2024, 11:56:07 »
Jednoduše řečeno z t.me/to_je_nas_svet..................se stažené vido na dalším webu nezobrazí.
ALE...
z t.me/HersonEnot
a z dalších účtů ANO!!!
****
Prostě Telegram jako soc. kanál funguje OK.
Pouze účet: t.me/to_je_nas_svet ..... někde z Dubaie to mrví a docela pěkně (pouze můj názor), protože nefunguje zobrazit po stažení video na webu přes script:

<script async src="https://telegram.org/js/telegram-widget.js?22" data-telegram-post="to_je_nas_svet/22957" data-width="100%"></script>

ani vložený kód na web HTML:

<video style="width: 600px; height: 400px;" controls= "controls">
<source src="https://nekecamweb.cz/infusions/blog/images/Rusi_Avdiivka_vlajka_18.2.2024.mp4" type="video/mp4"/></video>

Zkus vložit na web stránku.

U mě nefunguje v žádném browseru se jejich videa nezobrazí, pouze lišta a zvuk.
Proč to tak chodí asi vím, ale nebudu to zde rozvádět.

Díky ramael za pomoc a trpělivost se mnou.
« Poslední změna: 20 Února 2024, 13:10:29 od Kvido »
OS: Ubuntu 23.04
PC: Intel® Celeron(R) J4005 CPU @ 2.00GHz × 2, grafika: Mesa Intel® UHD Graphics 600 (GLK 2), disk SSD, 450 GB, paměť DDR 4 - 3,7 GiB.

ramael

  • Stálý člen
  • **
  • Příspěvků: 647
Re:Video, jen lišta
« Odpověď #11 kdy: 20 Února 2024, 20:10:34 »
Asi budu odpovídat naposledy. Přečti si ještě jednou co jsem tu napsal!:
Tak jsem na to koukl. Problém je s bitrate videa. Web prohlížeče nechtějí v základu přehrávat moc vysoké. Dá se to ošetřit pomocí JavaScriptu, ale to se mě nechce studovat. Najdi si něco o WebRTC.
Nebo si překonvertuj video na počítači:
Kód: [Vybrat]
ffmpeg -i vstupnivideo.mp4 -c:v libx264 -b:v 650k vystupnivideo.mp4
kde -b:v je jak vysoké videobitrate chceš mít. Těch 650k je dobře funkčních. Video o kterém jsi psal má 1803kb/s
Video Rusi_Avdiivka_vlajka_18.2.2024.mp4 jsem stáhnul z Tvého webu. Nehraje! Koukl se na bitrate:
Kód: [Vybrat]
ffprobe Rusi_Avdiivka_vlajka_18.2.2024.mp4
Výstup:
Kód: [Vybrat]
ffprobe version n6.1.1 Copyright (c) 2007-2023 the FFmpeg developers
  built with gcc 13.2.1 (GCC) 20230801
  configuration: --prefix=/usr --disable-debug --disable-static --disable-stripping --enable-amf --enable-avisynth --enable-cuda-llvm --enable-lto --enable-fontconfig --enable-frei0r --enable-gmp --enable-gnutls --enable-gpl --enable-ladspa --enable-libaom --enable-libass --enable-libbluray --enable-libbs2b --enable-libdav1d --enable-libdrm --enable-libfreetype --enable-libfribidi --enable-libgsm --enable-libharfbuzz --enable-libiec61883 --enable-libjack --enable-libjxl --enable-libmodplug --enable-libmp3lame --enable-libopencore_amrnb --enable-libopencore_amrwb --enable-libopenjpeg --enable-libopenmpt --enable-libopus --enable-libplacebo --enable-libpulse --enable-librav1e --enable-librsvg --enable-librubberband --enable-libsnappy --enable-libsoxr --enable-libspeex --enable-libsrt --enable-libssh --enable-libsvtav1 --enable-libtheora --enable-libv4l2 --enable-libvidstab --enable-libvmaf --enable-libvorbis --enable-libvpl --enable-libvpx --enable-libwebp --enable-libx264 --enable-libx265 --enable-libxcb --enable-libxml2 --enable-libxvid --enable-libzimg --enable-nvdec --enable-nvenc --enable-opencl --enable-opengl --enable-shared --enable-vapoursynth --enable-version3 --enable-vulkan
  libavutil      58. 29.100 / 58. 29.100
  libavcodec     60. 31.102 / 60. 31.102
  libavformat    60. 16.100 / 60. 16.100
  libavdevice    60.  3.100 / 60.  3.100
  libavfilter     9. 12.100 /  9. 12.100
  libswscale      7.  5.100 /  7.  5.100
  libswresample   4. 12.100 /  4. 12.100
  libpostproc    57.  3.100 / 57.  3.100
Input #0, mov,mp4,m4a,3gp,3g2,mj2, from 'Rusi_Avdiivka_vlajka_18.2.2024.mp4':
  Metadata:
    major_brand     : isom
    minor_version   : 512
    compatible_brands: isomiso2mp41
    creation_time   : 2024-02-17T11:39:01.000000Z
    encoder         : Lavf56.15.102
  Duration: 00:02:16.37, start: 0.000000, bitrate: 706 kb/s
  Stream #0:0[0x1](und): Video: mpeg4 (Simple Profile) (mp4v / 0x7634706D), yuv420p, 640x336 [SAR 1:1 DAR 40:21], 705 kb/s, 30 fps, 30 tbr, 15360 tbn (default)
    Metadata:
      creation_time   : 2024-02-17T11:39:01.000000Z
      handler_name    : VideoHandler
      vendor_id       : [0][0][0][0]
bitrate: 706 kb/s !!!!
To je snad víc než co jsem napsal. Tak si to zkonvertuj:
Kód: [Vybrat]
ffmpeg -i Rusi_Avdiivka_vlajka_18.2.2024.mp4 -c:v libx264 -b:v 650k vystupnivideo2.mp4
A video s nazvem vystupnivideo2.mp4 ti přehraje každý prohlížeč. Odzkoušeno, hraje!!!. Pokud u Tebe ne, což moc nevěřím, tak místo 650k napiš třeba 600k
Hotovo.
Howgh
Lenovo: ThinkPad X380 Yoga
Joutůůůůb

Kvido

  • Stálý člen
  • **
  • Příspěvků: 532
    • nekecamweb.cz
Re:Video, jen lišta
« Odpověď #12 kdy: 21 Února 2024, 10:45:26 »
Ano mám:

Kód: [Vybrat]
Input #0, mov,mp4,m4a,3gp,3g2,mj2, from 'Rusi_Avdiivka_vlajka_18.2.2024.mp4':
  Metadata:
    major_brand     : isom
    minor_version   : 512
    compatible_brands: isomiso2mp41
    creation_time   : 2024-02-17T11:39:01.000000Z
    encoder         : Lavf56.15.102
  Duration: 00:02:16.37, start: 0.000000, bitrate: 706 kb/s
  Stream #0:0(und): Video: mpeg4 (Simple Profile) (mp4v / 0x7634706D), yuv420p, 640x336 [SAR 1:1 DAR 40:21], 705 kb/s, 30 fps, 30 tbr, 15360 tbn, 30 tbc (default)
    Metadata:
      creation_time   : 2024-02-17T11:39:01.000000Z
      handler_name    : VideoHandler
      vendor_id       : [0][0][0][0]
kvido@kvido:~$

Pak tedy konverze...
Trvala necelé 2 minuty...
Takže uvidím, jak to dopadlo...
« Poslední změna: 23 Února 2024, 12:23:39 od Kvido »
OS: Ubuntu 23.04
PC: Intel® Celeron(R) J4005 CPU @ 2.00GHz × 2, grafika: Mesa Intel® UHD Graphics 600 (GLK 2), disk SSD, 450 GB, paměť DDR 4 - 3,7 GiB.

Kvido

  • Stálý člen
  • **
  • Příspěvků: 532
    • nekecamweb.cz
Re:Video, jen lišta
« Odpověď #13 kdy: 22 Února 2024, 09:57:42 »
Budu nyní zkoušet zcela nové video ze dneška:
Adějevka_hodnoceni_2024-02-21.mp4
Má před úpravou bitrate: 1732 kb/s
 ------

Kód: [Vybrat]
Input #0, mov,mp4,m4a,3gp,3g2,mj2, from 'Adějevka_hodnoceni_2024-02-21.mp4':
  Metadata:
    major_brand     : isom
    minor_version   : 512
    compatible_brands: isomiso2mp41
    creation_time   : 2024-02-21T09:41:00.000000Z
    encoder         : Lavf56.15.102
  Duration: 00:00:41.60, start: 0.000000, bitrate: 1732 kb/s
  Stream #0:0(und): Video: mpeg4 (Simple Profile) (mp4v / 0x7634706D), yuv420p, 848x464 [SAR 1:1 DAR 53:29], 1647 kb/s, 30 fps, 30 tbr, 15360 tbn, 30 tbc (default)
    Metadata:
      creation_time   : 2024-02-21T09:41:00.000000Z
      handler_name    : VideoHandler
      vendor_id       : [0][0][0][0]
  Stream #0:1(und): Audio: aac (LC) (mp4a / 0x6134706D), 44100 Hz, stereo, fltp, 77 kb/s (default)
    Metadata:
      creation_time   : 2024-02-21T09:41:00.000000Z
      handler_name    : SoundHandler
      vendor_id       : [0][0][0][0]
root@kvido:/home/kvido#

...Po kontrole má toto video bitrate: 784 kb/s

Kód: [Vybrat]
Input #0, mov,mp4,m4a,3gp,3g2,mj2, from 'vystupnivideo2.mp4':
  Metadata:
    major_brand     : isom
    minor_version   : 512
    compatible_brands: isomiso2avc1mp41
    encoder         : Lavf58.76.100
  Duration: 00:00:41.60, start: 0.000000, bitrate: 784 kb/s
  Stream #0:0(und): Video: h264 (High) (avc1 / 0x31637661), yuv420p, 848x464 [SAR 1:1 DAR 53:29], 647 kb/s, 30 fps, 30 tbr, 15360 tbn, 60 tbc (default)
    Metadata:
      handler_name    : VideoHandler
      vendor_id       : [0][0][0][0]
  Stream #0:1(und): Audio: aac (LC) (mp4a / 0x6134706D), 44100 Hz, stereo, fltp, 129 kb/s (default)
    Metadata:
      handler_name    : SoundHandler
      vendor_id       : [0][0][0][0]
kvido@kvido:~$

Zkusím tedy na webhostinku SFTP "vystupnívide2.mp4 uložit a jestli se na webu zobrazí...
« Poslední změna: 23 Února 2024, 12:39:44 od Kvido »
OS: Ubuntu 23.04
PC: Intel® Celeron(R) J4005 CPU @ 2.00GHz × 2, grafika: Mesa Intel® UHD Graphics 600 (GLK 2), disk SSD, 450 GB, paměť DDR 4 - 3,7 GiB.

Kvido

  • Stálý člen
  • **
  • Příspěvků: 532
    • nekecamweb.cz
Re:Video, jen lišta
« Odpověď #14 kdy: 22 Února 2024, 10:19:39 »
1/ Operace se zmenšením bitrate byla výborně provedena.
a/ na FSTP hositngu uložení bylo provedeno.
b/ V domácím PC ve Firefoxu ale píše:
Přístup k souboru byl odepřen. Rovněž zadaný vstup nelze otevřít:
Přehrávačem VLC nelze otevřít MRL 'file://home/kvido/vystupnivideo2.mp4'.  Podrobnosti naleznete v záznamu informací.
Soubor na adrese /home/kvido/vystupnivideo2.mp4 je nečitelný.
Možná byl smazán, přesunut nebo jeho oprávnění zabraňují přístupu.
Tento problém opravila přeinstalace VLC editoru.
Problém nadále trvá se zobrazením videa po uložení na webhostingu....
« Poslední změna: 22 Února 2024, 14:40:04 od Kvido »
OS: Ubuntu 23.04
PC: Intel® Celeron(R) J4005 CPU @ 2.00GHz × 2, grafika: Mesa Intel® UHD Graphics 600 (GLK 2), disk SSD, 450 GB, paměť DDR 4 - 3,7 GiB.

Kvido

  • Stálý člen
  • **
  • Příspěvků: 532
    • nekecamweb.cz
Re:Video, jen lišta
« Odpověď #15 kdy: 22 Února 2024, 14:53:00 »
Tak asi VYŘEŠENO!!!
Jak?
Udělal jsem konverzi z MP4 na MOV. Nyní je to soubor "Adějevka_hodnoceni_2024-02-21.MOV", je to video z Telegram/to_je_nas_svet, na kterém je reportér NBS (viz. obrázek Příloha).
Tento soubor se zobrazuje u mě ve Firefoxu i Chrome!
Co je nejdůležitější - standarně lze vložit soubor videa na vzdálené SFTP, takže se zobrazuje ve změněném formátu na nekecamweb.cz.
Doufám, že mně to nadále bude takto fungovat. Nevýhoda, zřejmě každé video před vložením na web musí jít přes konverzi na MOV!!
Ještě tu dám bitrate toho souboru, jak velké je, to pro zajímavost.
« Poslední změna: 22 Února 2024, 14:57:56 od Kvido »
OS: Ubuntu 23.04
PC: Intel® Celeron(R) J4005 CPU @ 2.00GHz × 2, grafika: Mesa Intel® UHD Graphics 600 (GLK 2), disk SSD, 450 GB, paměť DDR 4 - 3,7 GiB.

ramael

  • Stálý člen
  • **
  • Příspěvků: 647
Re:Video, jen lišta
« Odpověď #16 kdy: 22 Února 2024, 15:15:31 »
Kvido, to je očistec, očistec, OČISTEC!!!
Proč to všechno děláš jako root?! To je pak přece jasný, že tě to nepůjde spustit (přehrát, najít) a ani žádný webhosting ti soubor s takovými právy nepřijme!!!
Sakra, root účet se používá jen ve vyjímečných případech. A ty si jako root jen tak konvertuješ videa, vymýšlíš konspirace proč něco nefunguje atd.
Takhle jsem momentálně naladěn.
Není čas se naučit alespoň částečný základ linuxu?
Lenovo: ThinkPad X380 Yoga
Joutůůůůb

Kvido

  • Stálý člen
  • **
  • Příspěvků: 532
    • nekecamweb.cz
Re:Video, jen lišta
« Odpověď #17 kdy: 22 Února 2024, 15:21:15 »
Kód: [Vybrat]
Input #0, mov,mp4,m4a,3gp,3g2,mj2, from 'Adějevka_hodnoceni_2024-02-21.MOV':
  Metadata:
    creation_time   : 2024-02-21T09:41:00.000000Z
    major_brand     : isom
    compatible_brands: isomiso2mp41
    minor_version   : 512
    encoder         : Lavf58.12.100
  Duration: 00:00:41.66, start: 0.000000, bitrate: 2346 kb/s
  Stream #0:0: Video: h264 (Main) (avc1 / 0x31637661), yuv420p, 848x464 [SAR 1:1 DAR 53:29], 2023 kb/s, 29.99 fps, 29.97 tbr, 30k tbn, 59.94 tbc (default)
    Metadata:
      creation_time   : 2024-02-21T09:41:00.000000Z
      handler_name    : VideoHandler
      vendor_id       : FFMP
  Stream #0:1: Audio: aac (LC) (mp4a / 0x6134706D), 44100 Hz, stereo, fltp, 319 kb/s (default)
    Metadata:
      creation_time   : 2024-02-21T09:41:00.000000Z
      handler_name    : SoundHandler
      vendor_id       : [0][0][0][0]
kvido@kvido:~$


Takže bitrate: 2346 kb/s. Tedy velké. Přesto, zda se, že vše funguje dobře.

« Poslední změna: 23 Února 2024, 12:44:23 od Kvido »
OS: Ubuntu 23.04
PC: Intel® Celeron(R) J4005 CPU @ 2.00GHz × 2, grafika: Mesa Intel® UHD Graphics 600 (GLK 2), disk SSD, 450 GB, paměť DDR 4 - 3,7 GiB.

ramael

  • Stálý člen
  • **
  • Příspěvků: 647
Re:Video, jen lišta
« Odpověď #18 kdy: 22 Února 2024, 15:45:53 »
mov není plně podporován. Třeba mne se ve webprohlížeči bez doplňků nepřehraje. mov má hodně malou kompresi, takže bitrate je v tomto případě mimo. Nehledě na to, že dotaz byl na mp4 videa.
Lenovo: ThinkPad X380 Yoga
Joutůůůůb

JirkaZ

  • Moderátor
  • Závislák
  • ***
  • Příspěvků: 1778
  • Dlouholetý uživatel Linuxu a open source obecně.
Re:Video, jen lišta
« Odpověď #19 kdy: 22 Února 2024, 16:20:52 »
Já celý tenhle příspěvek považuju za skryté šíření ruské propagandy a věz, že vážně zvažuju jeho smazání.

ramael

  • Stálý člen
  • **
  • Příspěvků: 647
Re:Video, jen lišta
« Odpověď #20 kdy: 22 Února 2024, 16:55:08 »
Já celý tenhle příspěvek považuju za skryté šíření ruské propagandy a věz, že vážně zvažuju jeho smazání.
Nejsem si tím tak jist. Na webu se přiklání k ukrajině. Jen je to vždy s @Kvido těžký. To vypadá že fakt nemá páru co dělá a pořád něco zkouší. Kdyby ten čas a urputnost věnoval základům práce v linuxu, tak by si ušetřil tolik času a problémů. Pokud dělá vše jako root, tak má nejspíš systém otevřen do celého světa. A co jsem si všiml už vloni, tak jako root dělá skoro pořád.
Všimni si, v 15:15h mu píšu o tom root oprávnění. A v 15:21h postne výpis zase z root terminálu.
O tom jaký je rozdíl mezi kompresí mov a mp4 kontejnerů a co to znamená se mi už vůbec nechce vysvětlovat. Sám stejně vím jen základ s kterým jsem si zatím vystačil.
Lenovo: ThinkPad X380 Yoga
Joutůůůůb

JirkaZ

  • Moderátor
  • Závislák
  • ***
  • Příspěvků: 1778
  • Dlouholetý uživatel Linuxu a open source obecně.
Re:Video, jen lišta
« Odpověď #21 kdy: 22 Února 2024, 17:40:55 »
Zdá se, že hlavně vůbec nereaguje na to, co mu napíšeš (tragédie).

S tou propagandou si myslím, že to jsou přesně takové ty "jakoby objektivní", polopravdivé atd., čili ty reálně úplně nejškodlivější věci. Právě takhle se to totiž už dlouho dělá...

No nic. Pokud nebude uvádět další linky tím směrem a soustředí se na technikálie, tak to zatím nechám být.

Kvido

  • Stálý člen
  • **
  • Příspěvků: 532
    • nekecamweb.cz
Re:Video, jen lišta
« Odpověď #22 kdy: 23 Února 2024, 09:54:03 »
@JirkaZ
No nedivím se, že to tak může působit "jiným směrem".
Linky na RF zdroje zde nebudu již uvádět, to sem fakt nepatří, uznávám.
Rovněž na webu definitivně končím (už jsem to zde sděloval) s "to_je_nas_svet". Jsou přece další spolehlivější zdroje!
@ramael
"root", kruci, tak to jsem přehnal. Napravím.
OS: Ubuntu 23.04
PC: Intel® Celeron(R) J4005 CPU @ 2.00GHz × 2, grafika: Mesa Intel® UHD Graphics 600 (GLK 2), disk SSD, 450 GB, paměť DDR 4 - 3,7 GiB.

Kvido

  • Stálý člen
  • **
  • Příspěvků: 532
    • nekecamweb.cz
Re:Video, jen lišta
« Odpověď #23 kdy: 25 Února 2024, 13:13:48 »
Dodatečně děkuji za poznatky a doporučení.
OS: Ubuntu 23.04
PC: Intel® Celeron(R) J4005 CPU @ 2.00GHz × 2, grafika: Mesa Intel® UHD Graphics 600 (GLK 2), disk SSD, 450 GB, paměť DDR 4 - 3,7 GiB.

 

Provoz zaštiťuje spolek OpenAlt.